CUBE [DVDRip Terror Espa˝ol/Espa˝a 1997 Avi US]

Autor: orlando_2312    
0
13 Mayo 2011
606

DESCARGAR:


Caps


CUBE [DVDRip Terror Espa˝ol/Espa˝a 1997 Avi US]


Ficha Tenica

Titulo Original: Cube
Titulo hispano: El Cubo
GENERO: terror - Ficciˇn
PAIS: Canadß
DURACION: 86 Minutos
AĐO: 1997
Director: Vincenzo Natali
Actores: Andrew Miller., Julian
Richings, Wayne Robson, Maurice
Dean Wint, Nicole de Boer, Nicky Guadagni

Datos de ripeo

General
Complete name : files/O2312CBECAS.avi
Idioma: Castellano [Espa˝ol de espa˝a]
Format : AVI
Format/Info : Audio Video Interleave
File size : 687 MiB
Duration : 1h 26mn
Overall bit rate : 1 108 Kbps
Writing application : Nandub v1.0rc2
Writing library : Nandub build 1852/release

Video
ID : 0
Format : MPEG-4 Visual
Format settings, BVOP : Yes
Format settings, QPel : No
Format settings, GMC : 2 warppoints
Format settings, Matrix : Default (H.263)
Muxing mode : Packed bitstream
Codec ID : DX50
Codec ID/Hint : DivX 5
Duration : 1h 26mn
Bit rate : 945 Kbps
Width : 640 pixels
Height : 336 pixels
Display aspect ratio : 1.905
Frame rate : 25.000 fps
Color space : YUV
Chroma subsampling : 4:2:0
Bit depth : 8 bits
Scan type : Progressive
Compression mode : Lossy
Bits/(Pixel*Frame) : 0.176
Stream size : 587 MiB (85%)
Writing library : DivX 5.0.2 (UTC 2002-05-16)

Audio
ID : 1
Format : MPEG Audio
Format version : Version 1
Format profile : Layer 3
Mode : Joint stereo
Mode extension : MS Stereo
Codec ID : 55
Codec ID/Hint : MP3
Duration : 1h 26mn
Bit rate mode : Variable
Bit rate : 150 Kbps
Nominal bit rate : 160 Kbps
Channel(s) : 2 channels
Sampling rate : 48.0 KHz
Compression mode : Lossy
Stream size : 92.8 MiB (14%)
Alignment : Aligned on interleaves
Interleave, duration : 24 ms (0.60 video frame)
Interleave, preload duration : 467 ms
Writing library : LAME3.92
Encoding settings : -m j -V 4 -q 2 -lowpass 18.5 --abr 160

Descarga

US
Parte 1
http://www.uploadstation.com/file/kHbWuPS/O2312CBECAS.avi.part1.rar
Parte 2
http://www.uploadstation.com/file/UxaVvX2/O2312CBECAS.avi.part2.rar

Nota: Si encuentras un link caÝdo avÝsame para volverlo a subir

DESCARGAR:

password archivo: sin password
 
Estimado visitante, usted esta en el sitio como usuario no registrado.
Le recomendamos Registrase o entrar en el sitio con sus datos.
 
Informaciˇn
Usuarios que estßn en este grupo no pueden dejar comentarios en la pßgina