Final fantasy: la fuerza del interior [DVDRip Animacion Español/España 2001 Avi FLS]

Autor: orlando_2312    
1
1 Mayo 2011
565

DESCARGAR:


Caps


Final fantasy: la fuerza del interior [DVDRip Animacion Español/España 2001 Avi FLS]


Ficha Tenica

TÍTULO ORIGINAL Final Fantasy: The Spirits Within
AÑO 2001
DURACIÓN 107 min.
PAÍS Estados Unidos
DIRECTOR Hironobu Sakaguchi
GUIÓN Al Reinert & Eff Vintar
MÚSICA Elliot Goldenthal
FOTOGRAFÍA Animation
REPARTO Animation
PRODUCTORA Columbia Pictures / Square Pictures
GÉNERO Animación. Ciencia ficción. Fantástico | Videojuego

Datos de ripeo

General
Complete name : files/O2312FFLFICAS.avi
Format : AVI
Format/Info : Audio Video Interleave
File size : 1.73 GiB
Duration : 1h 41mn
Overall bit rate : 2 434 Kbps

Video
ID : 0
Format : MPEG-4 Visual
Format profile : Simple@L3
Format settings, BVOP : No
Format settings, QPel : No
Format settings, GMC : No warppoints
Format settings, Matrix : Default (H.263)
Codec ID : XVID
Codec ID/Hint : XviD
Duration : 1h 41mn
Bit rate : 1 975 Kbps
Width : 720 pixels
Height : 400 pixels
Display aspect ratio : 16:9
Frame rate : 25.000 fps
Color space : YUV
Chroma subsampling : 4:2:0
Bit depth : 8 bits
Scan type : Progressive
Compression mode : Lossy
Bits/(Pixel*Frame) : 0.274
Stream size : 1.40 GiB (81%)
Writing library : XviD 1.1.2 (UTC 2006-11-01)

Audio
ID : 1
Format : AC-3
Format/Info : Audio Coding 3
Mode extension : CM (complete main)
Codec ID : 2000
Duration : 1h 41mn
Bit rate mode : Constant
Bit rate : 448 Kbps
Channel(s) : 6 channels
Channel positions : Front: L C R, Side: L R, LFE
Sampling rate : 48.0 KHz
Bit depth : 16 bits
Compression mode : Lossy
Stream size : 326 MiB (18%)
Alignment : Aligned on interleaves
Interleave, duration : 32 ms (0.80 video frame)

Descarga

FLS
Parte 1
http://bitshare.com/files/5knls6qs/O2312FFLFICAS.avi.part1.rar.html
Parte 2
http://bitshare.com/files/3d35y3q2/O2312FFLFICAS.avi.part2.rar.html
Parte 3
http://bitshare.com/files/1ox9xmjz/O2312FFLFICAS.avi.part3.rar.html
Parte 4
http://bitshare.com/files/bx0sr7ch/O2312FFLFICAS.avi.part4.rar.html

Nota: Si encuentras un link caído avísame para volverlo a subir

DESCARGAR:

password archivo: sin password
 
Estimado visitante, usted esta en el sitio como usuario no registrado.
Le recomendamos Registrase o entrar en el sitio con sus datos.
 
    • 3 Mayo 2011
    • Publicaciones: 0
    • ICQ:
    Grupo: Visitantes | Registrado: -- | Comentarios: 0 | Online:
    Gracias, mi hijo se lo agradece también.

  • Información
    Usuarios que están en este grupo no pueden dejar comentarios en la página