» » The Naked Gun [1988][Full HD 1080][Ing-Lat]

 
 
 

The Naked Gun [1988][Full HD 1080][Ing-Lat]

Autor: campitos el 25-04-2017, 20:32, Visitas: 231

DESCARGA AQUI

loading...

0

The Naked Gun [1988][Full HD 1080][Ing-Lat]

Titulo original The Naked Gun
Ano 1988
Duracion 85 min.
Pais Estados Unidos
Director David Zucker
Guion Jerry Zucker, Jim Abrahams, David Zucker, Pat Proft
Musica Ira Newborn
Fotografia Robert Stevens
Reparto Leslie Nielsen, Priscila Presley, George Kennedy, Ricardo Montalban, O.J. Simpson, John Houseman, Nancy Marchand, Susan Beaubian
Productora Paramount Pictures
http://www.imdb.com/title/tt0095705/?ref_=fn_al_tt_1
Genero Comedia | Comedia absurda. Parodia. Policiaco
Sinopsis Tras la muerte de su companero Nordberg en un tiroteo protagonizado por una banda de narcotraficantes, el incompetente teniente Frank Drebin busca al jefe de la organizacion para vengarse. Sospecha del magnate naviero Vincent Ludwig, pero no tiene pruebas para inculparlo. Sin embargo, de manera inesperada, consigue la ayuda de Jane Spencer, una antigua novia de Ludwig
https://www.youtube.com/watch?v=tN4_SEzZ1x0



General
The Naked Gun Police Squad (1988) [FULL 1080p Dual].mkv
Format : Matroska
Format version : Version 4 / Version 2
File size : 2.22 GiB
Duration : 1h 24mn
Overall bit rate : 3 747 Kbps
Movie name : The Naked Gun Police Squad (1988) [FULL 1080p Dual]
Encoded date : UTC 2014-02-02 15:35:27
Writing application : mkvmerge v6.0.0 ('Coming Up For Air') built on Jan 20 2013 09:52:00
Writing library : libebml v1.3.0 + libmatroska v1.4.0
Video
ID : 1
Format : AVC
Format/Info : Advanced Video Codec
Format profile : High@L4.1
Format settings, CABAC : Yes
Format settings, ReFrames : 2 frames
Codec ID : V_MPEG4/ISO/AVC
Duration : 1h 24mn
Bit rate : 2 905 Kbps
Width : 1 920 pixels
Height : 1 080 pixels
Display aspect ratio : 16:9
Frame rate mode : Constant
Frame rate : 23.976 fps
Color space : YUV
Chroma subsampling : 4:2:0
Bit depth : 8 bits
Scan type : Progressive
Bits/(Pixel*Frame) : 0.058
Stream size : 1.72 GiB (78%)
Writing library : x264 core
Default : Yes
Forced : No
Color primaries : BT.709
Transfer characteristics : BT.709
Matrix coefficients : BT.709
Audio #1
ID : 2
Format : AC-3
Format/Info : Audio Coding 3
Mode extension : CM (complete main)
Format settings, Endianness : Big
Codec ID : A_AC3
Duration : 1h 24mn
Bit rate mode : Constant
Bit rate : 448 Kbps
Channel count : 6 channels
Channel positions : Front: L C R, Side: L R, LFE
Sampling rate : 48.0 KHz
Bit depth : 16 bits
Compression mode : Lossy
Stream size : 272 MiB (12%)
Title : Audio Latino
Default : Yes
Forced : No
Audio #2
ID : 3
Format : AC-3
Format/Info : Audio Coding 3
Mode extension : CM (complete main)
Format settings, Endianness : Big
Codec ID : A_AC3
Duration : 1h 24mn
Bit rate mode : Constant
Bit rate : 320 Kbps
Channel count : 6 channels
Channel positions : Front: L C R, Side: L R, LFE
Sampling rate : 44.1 KHz
Bit depth : 16 bits
Compression mode : Lossy
Stream size : 195 MiB (9%)
Title : Audio Ingles
Default : No
Forced : No
Text #1
ID : 4
Format : VobSub
Muxing mode : zlib
Codec ID : S_VOBSUB
Codec ID/Info : The same subtitle format used on DVDs
Title : Subtitulos Latino
Default : No
Forced : No
Text #2
ID : 5
Format : VobSub
Muxing mode : zlib
Codec ID : S_VOBSUB
Codec ID/Info : The same subtitle format used on DVDs
Title : Subtitulos Ingles
Default : No
Forced : No
Text #3
ID : 6
Format : UTF-8
Codec ID : S_TEXT/UTF8
Codec ID/Info : UTF-8 Plain Text
Default : Yes
Forced : No


The Naked Gun [1988][Full HD 1080][Ing-Lat]
The Naked Gun [1988][Full HD 1080][Ing-Lat]
The Naked Gun [1988][Full HD 1080][Ing-Lat]
The Naked Gun [1988][Full HD 1080][Ing-Lat]

The Naked Gun [1988][Full HD 1080][Ing-Lat]



DESCARGA AQUI

Tags: The, Naked, Gun, 1988, Full

Categoria: Peliculas

Estimado visitante, usted esta en el sitio como usuario no registrado.
Le recomendamosRegistrarse o entrar en el sitio con sus datos.
Información
Usuarios que están en este grupo no pueden dejar comentarios en la página