» » Relaci髇 secreta [DVDRip Intriga Castellano 2013 Avi Oboom]

 
 
 

Relaci髇 secreta [DVDRip Intriga Castellano 2013 Avi Oboom]

Autor: Orlando_2312 el 13-08-2014, 21:42, Visitas: 254

DESCARGA AQUI

loading...

0


Informaci髇 del archivo en el servidor
N de Links: 4
Servidor: Oboom
Tama駉: 950 MB

Sinopsis
prestigiosa abogada se hace cargo de la defensa de su hermana Brenda
, tras ser detenida por el supuesto asesinato de su amante. Todas 
las pruebas la se馻lan como culpable, aunque la abogada tiene 
el presentimiento de que la representada le 
oculta informaci髇. 

Caps




Ficha Tenica

T韙ulo original
Secret Liaison (TV)
A駉
2013
Pa韘
Canad
Director
Andrew de Villiers
Gui髇
Andrew de Villiers
M鷖ica
Christopher Nickel
Fotograf韆
Shawn Seifert
Reparto
Julia Benson, Lochlyn Munro, 
Meredith Monroe, Nicole 
LaPlaca, Rick Ravanello, 
Paul Lazenby
Productora
Michele Futerman 
Género
Intriga | Telefilm 

Datos de ripeo

General
Complete name                            : O2312SECRETA.avi
Format                                   : AVI
Format/Info                              : Audio Video Interleave
File size                                : 950 MiB
Duration                                 : 1h 17mn
Overall bit rate                         : 1 704 Kbps
Writing application                      : VirtualDubMod 1.5.10.2 (build 2540/release)
Writing library                          : VirtualDubMod build 2540/release

Video
ID                                       : 0
Format                                   : MPEG-4 Visual
Format profile                           : Advanced Simple@L5
Format settings, BVOP                    : 2
Format settings, QPel                    : No
Format settings, GMC                     : No warppoints
Format settings, Matrix                  : Default (H.263)
Muxing mode                              : Packed bitstream
Codec ID                                 : XVID
Codec ID/Hint                            : XviD
Duration                                 : 1h 17mn
Bit rate                                 : 1 055 Kbps
Width                                    : 592 pixels
Height                                   : 320 pixels
Display aspect ratio                     : 1.85:1
Frame rate                               : 25.000 fps
Color space                              : YUV
Chroma subsampling                       : 4:2:0
Bit depth                                : 8 bits
Scan type                                : Progressive
Compression mode                         : Lossy
Bits/(Pixel*Frame)                       : 0.223
Stream size                              : 588 MiB (62%)
Writing library                          : XviD 1.1.2 (UTC 2006-11-01)

Audio
ID                                       : 1
Format                                   : AC-3
Format/Info                              : Audio Coding 3
Mode extension                           : CM (complete main)
Format settings, Endianness              : Big
Codec ID                                 : 2000
Duration                                 : 1h 17mn
Bit rate mode                            : Constant
Bit rate                                 : 640 Kbps
Channel(s)                               : 2 channels
Channel positions                        : Front: L R
Sampling rate                            : 48.0 KHz
Bit depth                                : 16 bits
Compression mode                         : Lossy
Stream size                              : 357 MiB (38%)
Alignment                                : Split accross interleaves
Interleave, duration                     : 40 ms (1.00 video frame)
Interleave, preload duration             : 500 ms

Parte 1
Parte 2
Parte 3
Parte 4

Nota: Si encuentras un link ca韉o av韘ame para volverlo a subir


DESCARGA AQUI

Categoria: Video

Estimado visitante, usted esta en el sitio como usuario no registrado.
Le recomendamosRegistrarse o entrar en el sitio con sus datos.
Informaci贸n
Usuarios que est谩n en este grupo no pueden dejar comentarios en la p谩gina