» » La batalla de los malditos [DVDRip C. Ficcion Castellano 2013 Avi Oboom]

 
 
 

La batalla de los malditos [DVDRip C. Ficcion Castellano 2013 Avi Oboom]

Autor: Orlando_2312 el 13-08-2014, 21:35, Visitas: 308

DESCARGA AQUI

loading...

0


Informacin del archivo en el servidor
N de Links: 4
Servidor: Oboom
Tamao: 907 MB

Sinopsis
Nos encontramos en el futuro, lejos de la civilizacin, en un planeta 
donde un puado de supervivientes sobrevive con un pequeo arsenal 
de armas contra los infectados. Todo fue debido a un fallo de 
seguridad que provoc un estallido vrico que dejo 
centenares de muertos o mutados que acechan 
a los que quedan vivos. Encabezados por 
Max Gatling (Lundgren), nuestros 
héroes aprendern a luchar 
contra los infectados con 
la esperanza de un 
rescate que venga 
desde el
exterior. 

Caps


La batalla de los malditos [DVDRip C. Ficcion Castellano 2013 Avi Oboom]


Ficha Tenica

Ttulo original
Battle of the Damned
Ao
2013
Duracin
84 min.
Pas
Singapur
Director
Christopher Hatton
Guin
Christopher Hatton
Msica
Joe Ng, Ting Si Hao 
Fotografa
Roger Chingirian
Reparto
Dolph Lundgren, Matt Doran, Esteban 
Cueto, David Field, Lydia Look, Jen 
Sung, Melanie Zanetti, Jeff Pruitt, 
Broadus Mattison, Kerry Wong, Oda Maria
Productora
Coproduccin EEUU-Singapur;
 Boku Films / Compound B
Género
Ciencia ficcin. Terror. Accin | 
Pandemias. Robots. Zombis 

Datos de ripeo

General
Complete name                            : O2312MALDITOS.avi
Format                                   : AVI
Format/Info                              : Audio Video Interleave
File size                                : 907 MiB
Duration                                 : 1h 28mn
Overall bit rate                         : 1 431 Kbps
Writing application                      : VirtualDubMod 1.5.10.2 (build 2542/release)
Writing library                          : VirtualDubMod build 2542/release

Video
ID                                       : 0
Format                                   : MPEG-4 Visual
Format profile                           : Advanced Simple@L5
Format settings, BVOP                    : 2
Format settings, QPel                    : No
Format settings, GMC                     : No warppoints
Format settings, Matrix                  : Default (MPEG)
Codec ID                                 : XVID
Codec ID/Hint                            : XviD
Duration                                 : 1h 28mn
Bit rate                                 : 973 Kbps
Width                                    : 640 pixels
Height                                   : 352 pixels
Display aspect ratio                     : 16:9
Frame rate                               : 23.976 fps
Color space                              : YUV
Chroma subsampling                       : 4:2:0
Bit depth                                : 8 bits
Scan type                                : Progressive
Compression mode                         : Lossy
Bits/(Pixel*Frame)                       : 0.180
Stream size                              : 617 MiB (68%)
Writing library                          : XviD 1.2.1 (UTC 2008-12-04)

Audio
ID                                       : 1
Format                                   : AC-3
Format/Info                              : Audio Coding 3
Mode extension                           : CM (complete main)
Format settings, Endianness              : Big
Codec ID                                 : 2000
Duration                                 : 1h 28mn
Bit rate mode                            : Constant
Bit rate                                 : 448 Kbps
Channel(s)                               : 6 channels
Channel positions                        : Front: L C R, Side: L R, LFE
Sampling rate                            : 48.0 KHz
Bit depth                                : 16 bits
Compression mode                         : Lossy
Stream size                              : 284 MiB (31%)
Alignment                                : Split accross interleaves
Interleave, duration                     : 42 ms (1.00 video frame)
Interleave, preload duration             : 500 ms

Parte 1
Parte 2
Parte 3
Parte 4

Nota: Si encuentras un link cado avsame para volverlo a subir


DESCARGA AQUI

Categoria: Video

Estimado visitante, usted esta en el sitio como usuario no registrado.
Le recomendamosRegistrarse o entrar en el sitio con sus datos.
Información
Usuarios que están en este grupo no pueden dejar comentarios en la página