» » Monster High: Espantada de Isla Calavera [DVDRip Animaci髇 Castellano 2013 Avi Oboom]

 
 
 

Monster High: Espantada de Isla Calavera [DVDRip Animaci髇 Castellano 2013 Avi Oboom]

Autor: Orlando_2312 el 13-08-2014, 21:13, Visitas: 290

DESCARGA AQUI

loading...

0


Informaci髇 del archivo en el servidor
N de Links: 4
Servidor: Oboom
Tama駉: 667 MB

Sinopsis
!Por fin han llegado las vacaciones de verano a Monster High! Después 
de un curso terror韋ico en el instituto, Lagoona invita a sus 
monstruo-amigas y a su novio Gil a visitar a su familia en 
La Gran Barrera de Coral. Todo parece divino de la 
muerte hasta que el yate donde viajan sufre un 
ataque del Kraken y naufraga. 緾onseguir醤 
sobrevivir l@s monstruit@s de Monster High? 

Caps




Ficha Tenica

T韙ulo original
Monster High: 
Escape From Skull Shores (TV)
A駉
2012
Duraci髇
44 min.
Pa韘
Estados Unidos
Director
Steve Ball, Andrew Duncan
Gui髇
Mike Montesano, Ted Zizik 
(Personajes: Garrett Sander, Kellee Riley)
M鷖ica
Steven Argila
Fotograf韆
Animation
Reparto
Animation
Productora
Mattel Entertainment / Nerd Corps Entertainment
Género
Animaci髇. Romance. Fant醩tico. 
Infantil | Monstruos. Mediometraje. Telefilm 

Datos de ripeo

General
Complete name                            : O2312CALAVERA.avi
Format                                   : AVI
Format/Info                              : Audio Video Interleave
File size                                : 667 MiB
Duration                                 : 44mn 9s
Overall bit rate                         : 2 111 Kbps
Writing application                      : Lavf53.32.100

Video
ID                                       : 0
Format                                   : MPEG-4 Visual
Format profile                           : Advanced Simple@L5
Format settings, BVOP                    : 2
Format settings, QPel                    : No
Format settings, GMC                     : No warppoints
Format settings, Matrix                  : Default (H.263)
Muxing mode                              : Packed bitstream
Codec ID                                 : XVID
Codec ID/Hint                            : XviD
Duration                                 : 44mn 9s
Bit rate                                 : 1 716 Kbps
Width                                    : 720 pixels
Height                                   : 404 pixels
Display aspect ratio                     : 16:9
Frame rate                               : 25.000 fps
Color space                              : YUV
Chroma subsampling                       : 4:2:0
Bit depth                                : 8 bits
Scan type                                : Progressive
Compression mode                         : Lossy
Bits/(Pixel*Frame)                       : 0.236
Stream size                              : 542 MiB (81%)
Writing library                          : XviD 64

Audio
ID                                       : 1
Format                                   : AC-3
Format/Info                              : Audio Coding 3
Mode extension                           : CM (complete main)
Format settings, Endianness              : Big
Codec ID                                 : 2000
Duration                                 : 44mn 9s
Bit rate mode                            : Constant
Bit rate                                 : 384 Kbps
Channel(s)                               : 6 channels
Channel positions                        : Front: L C R, Side: L R, LFE
Sampling rate                            : 48.0 KHz
Bit depth                                : 16 bits
Compression mode                         : Lossy
Stream size                              : 121 MiB (18%)
Alignment                                : Aligned on interleaves
Interleave, duration                     : 32 ms (0.80 video frame)

Parte 1
Parte 2
Parte 3
Parte 4

Nota: Si encuentras un link ca韉o av韘ame para volverlo a subir

Informaci髇 del archivo en el servidor
N de Links: 4
Servidor: Oboom
Tama駉: 667 MB

Sinopsis
!Por fin han llegado las vacaciones de verano a Monster High! Después 
de un curso terror韋ico en el instituto, Lagoona invita a sus 
monstruo-amigas y a su novio Gil a visitar a su familia en 
La Gran Barrera de Coral. Todo parece divino de la 
muerte hasta que el yate donde viajan sufre un 
ataque del Kraken y naufraga. 緾onseguir醤 
sobrevivir l@s monstruit@s de Monster High? 

Caps




Ficha Tenica

T韙ulo original
Monster High: 
Escape From Skull Shores (TV)
A駉
2012
Duraci髇
44 min.
Pa韘
Estados Unidos
Director
Steve Ball, Andrew Duncan
Gui髇
Mike Montesano, Ted Zizik 
(Personajes: Garrett Sander, Kellee Riley)
M鷖ica
Steven Argila
Fotograf韆
Animation
Reparto
Animation
Productora
Mattel Entertainment / Nerd Corps Entertainment
Género
Animaci髇. Romance. Fant醩tico. 
Infantil | Monstruos. Mediometraje. Telefilm 

Datos de ripeo

General
Complete name                            : O2312CALAVERA.avi
Format                                   : AVI
Format/Info                              : Audio Video Interleave
File size                                : 667 MiB
Duration                                 : 44mn 9s
Overall bit rate                         : 2 111 Kbps
Writing application                      : Lavf53.32.100

Video
ID                                       : 0
Format                                   : MPEG-4 Visual
Format profile                           : Advanced Simple@L5
Format settings, BVOP                    : 2
Format settings, QPel                    : No
Format settings, GMC                     : No warppoints
Format settings, Matrix                  : Default (H.263)
Muxing mode                              : Packed bitstream
Codec ID                                 : XVID
Codec ID/Hint                            : XviD
Duration                                 : 44mn 9s
Bit rate                                 : 1 716 Kbps
Width                                    : 720 pixels
Height                                   : 404 pixels
Display aspect ratio                     : 16:9
Frame rate                               : 25.000 fps
Color space                              : YUV
Chroma subsampling                       : 4:2:0
Bit depth                                : 8 bits
Scan type                                : Progressive
Compression mode                         : Lossy
Bits/(Pixel*Frame)                       : 0.236
Stream size                              : 542 MiB (81%)
Writing library                          : XviD 64

Audio
ID                                       : 1
Format                                   : AC-3
Format/Info                              : Audio Coding 3
Mode extension                           : CM (complete main)
Format settings, Endianness              : Big
Codec ID                                 : 2000
Duration                                 : 44mn 9s
Bit rate mode                            : Constant
Bit rate                                 : 384 Kbps
Channel(s)                               : 6 channels
Channel positions                        : Front: L C R, Side: L R, LFE
Sampling rate                            : 48.0 KHz
Bit depth                                : 16 bits
Compression mode                         : Lossy
Stream size                              : 121 MiB (18%)
Alignment                                : Aligned on interleaves
Interleave, duration                     : 32 ms (0.80 video frame)

Parte 1
Parte 2
Parte 3
Parte 4

Nota: Si encuentras un link ca韉o av韘ame para volverlo a subir

Informaci髇 del archivo en el servidor
N de Links: 4
Servidor: Oboom
Tama駉: 667 MB

Sinopsis
!Por fin han llegado las vacaciones de verano a Monster High! Después 
de un curso terror韋ico en el instituto, Lagoona invita a sus 
monstruo-amigas y a su novio Gil a visitar a su familia en 
La Gran Barrera de Coral. Todo parece divino de la 
muerte hasta que el yate donde viajan sufre un 
ataque del Kraken y naufraga. 緾onseguir醤 
sobrevivir l@s monstruit@s de Monster High? 

Caps




Ficha Tenica

T韙ulo original
Monster High: 
Escape From Skull Shores (TV)
A駉
2012
Duraci髇
44 min.
Pa韘
Estados Unidos
Director
Steve Ball, Andrew Duncan
Gui髇
Mike Montesano, Ted Zizik 
(Personajes: Garrett Sander, Kellee Riley)
M鷖ica
Steven Argila
Fotograf韆
Animation
Reparto
Animation
Productora
Mattel Entertainment / Nerd Corps Entertainment
Género
Animaci髇. Romance. Fant醩tico. 
Infantil | Monstruos. Mediometraje. Telefilm 

Datos de ripeo

General
Complete name                            : O2312CALAVERA.avi
Format                                   : AVI
Format/Info                              : Audio Video Interleave
File size                                : 667 MiB
Duration                                 : 44mn 9s
Overall bit rate                         : 2 111 Kbps
Writing application                      : Lavf53.32.100

Video
ID                                       : 0
Format                                   : MPEG-4 Visual
Format profile                           : Advanced Simple@L5
Format settings, BVOP                    : 2
Format settings, QPel                    : No
Format settings, GMC                     : No warppoints
Format settings, Matrix                  : Default (H.263)
Muxing mode                              : Packed bitstream
Codec ID                                 : XVID
Codec ID/Hint                            : XviD
Duration                                 : 44mn 9s
Bit rate                                 : 1 716 Kbps
Width                                    : 720 pixels
Height                                   : 404 pixels
Display aspect ratio                     : 16:9
Frame rate                               : 25.000 fps
Color space                              : YUV
Chroma subsampling                       : 4:2:0
Bit depth                                : 8 bits
Scan type                                : Progressive
Compression mode                         : Lossy
Bits/(Pixel*Frame)                       : 0.236
Stream size                              : 542 MiB (81%)
Writing library                          : XviD 64

Audio
ID                                       : 1
Format                                   : AC-3
Format/Info                              : Audio Coding 3
Mode extension                           : CM (complete main)
Format settings, Endianness              : Big
Codec ID                                 : 2000
Duration                                 : 44mn 9s
Bit rate mode                            : Constant
Bit rate                                 : 384 Kbps
Channel(s)                               : 6 channels
Channel positions                        : Front: L C R, Side: L R, LFE
Sampling rate                            : 48.0 KHz
Bit depth                                : 16 bits
Compression mode                         : Lossy
Stream size                              : 121 MiB (18%)
Alignment                                : Aligned on interleaves
Interleave, duration                     : 32 ms (0.80 video frame)

Parte 1
Parte 2
Parte 3
Parte 4

Nota: Si encuentras un link ca韉o av韘ame para volverlo a subir

Informaci髇 del archivo en el servidor
N de Links: 4
Servidor: Oboom
Tama駉: 667 MB

Sinopsis
!Por fin han llegado las vacaciones de verano a Monster High! Después 
de un curso terror韋ico en el instituto, Lagoona invita a sus 
monstruo-amigas y a su novio Gil a visitar a su familia en 
La Gran Barrera de Coral. Todo parece divino de la 
muerte hasta que el yate donde viajan sufre un 
ataque del Kraken y naufraga. 緾onseguir醤 
sobrevivir l@s monstruit@s de Monster High? 

Caps




Ficha Tenica

T韙ulo original
Monster High: 
Escape From Skull Shores (TV)
A駉
2012
Duraci髇
44 min.
Pa韘
Estados Unidos
Director
Steve Ball, Andrew Duncan
Gui髇
Mike Montesano, Ted Zizik 
(Personajes: Garrett Sander, Kellee Riley)
M鷖ica
Steven Argila
Fotograf韆
Animation
Reparto
Animation
Productora
Mattel Entertainment / Nerd Corps Entertainment
Género
Animaci髇. Romance. Fant醩tico. 
Infantil | Monstruos. Mediometraje. Telefilm 

Datos de ripeo

General
Complete name                            : O2312CALAVERA.avi
Format                                   : AVI
Format/Info                              : Audio Video Interleave
File size                                : 667 MiB
Duration                                 : 44mn 9s
Overall bit rate                         : 2 111 Kbps
Writing application                      : Lavf53.32.100

Video
ID                                       : 0
Format                                   : MPEG-4 Visual
Format profile                           : Advanced Simple@L5
Format settings, BVOP                    : 2
Format settings, QPel                    : No
Format settings, GMC                     : No warppoints
Format settings, Matrix                  : Default (H.263)
Muxing mode                              : Packed bitstream
Codec ID                                 : XVID
Codec ID/Hint                            : XviD
Duration                                 : 44mn 9s
Bit rate                                 : 1 716 Kbps
Width                                    : 720 pixels
Height                                   : 404 pixels
Display aspect ratio                     : 16:9
Frame rate                               : 25.000 fps
Color space                              : YUV
Chroma subsampling                       : 4:2:0
Bit depth                                : 8 bits
Scan type                                : Progressive
Compression mode                         : Lossy
Bits/(Pixel*Frame)                       : 0.236
Stream size                              : 542 MiB (81%)
Writing library                          : XviD 64

Audio
ID                                       : 1
Format                                   : AC-3
Format/Info                              : Audio Coding 3
Mode extension                           : CM (complete main)
Format settings, Endianness              : Big
Codec ID                                 : 2000
Duration                                 : 44mn 9s
Bit rate mode                            : Constant
Bit rate                                 : 384 Kbps
Channel(s)                               : 6 channels
Channel positions                        : Front: L C R, Side: L R, LFE
Sampling rate                            : 48.0 KHz
Bit depth                                : 16 bits
Compression mode                         : Lossy
Stream size                              : 121 MiB (18%)
Alignment                                : Aligned on interleaves
Interleave, duration                     : 32 ms (0.80 video frame)

Parte 1
Parte 2
Parte 3
Parte 4

Nota: Si encuentras un link ca韉o av韘ame para volverlo a subir


DESCARGA AQUI

Categoria: Video

Estimado visitante, usted esta en el sitio como usuario no registrado.
Le recomendamosRegistrarse o entrar en el sitio con sus datos.
Informaci贸n
Usuarios que est谩n en este grupo no pueden dejar comentarios en la p谩gina