» » El gran hotel Budapest [DVDRip Comedia Castellano 2014 Avi Oboom]

 
 
 

El gran hotel Budapest [DVDRip Comedia Castellano 2014 Avi Oboom]

Autor: Orlando_2312 el 13-08-2014, 21:05, Visitas: 318

DESCARGA AQUI

loading...

0


Informacin del archivo en el servidor
N de Links: 4
Servidor: Oboom
Tamao: 1.1 GB

Sinopsis
Gustave H. (Ralph Fiennes), un legendario conserje de un famoso hotel europeo de 
entreguerras, entabla amistad con Zero Moustafa (Tony Revolori), un joven 
empleado al que convierte en su protegido. La historia trata sobre el
robo y la recuperacin de una pintura renacentista de valor 
incalculable y sobre la batalla que enfrenta a los miembros 
de una familia por una inmensa fortuna. Como teln de 
fondo, los levantamientos que transformaron Europa 
durante la primera mitad del siglo XX. 

Caps


El gran hotel Budapest [DVDRip Comedia Castellano 2014 Avi Oboom]


Ficha Tenica

Ttulo original
The Grand Budapest Hotel
Ao
2014
Duracin
99 min.
Pas
Estados Unidos
Director
Wes Anderson
Guin
Wes Anderson (Historia: Wes A
nderson, Hugo Guinness)
Msica
Alexandre Desplat
Fotografa
Robert D. Yeoman
Reparto
Ralph Fiennes, Tony Revolori, Saoirse Ronan, 
Edward Norton, Jeff Goldblum, Willem Dafoe, 
Jude Law, F. Murray Abraham, Adrien Brody, 
Tilda Swinton, Harvey Keitel, Mathieu 
Amalric, Jason Schwartzman, Tom
 Wilkinson, Larry Pine, Bill 
Murray, Owen Wilson, Léa Seydoux, 
Giselda Volodi, Bob Balaban, Florian 
Lukas, Karl Markovics, Volker Michalowski, 
Fisher Stevens, Wallace Wolodarsky, Waris Ahluwalia
Productora
FoxSearchlight / Scott Rudin Productions / American Paintbrush
Género
Comedia | Aos 30 

Datos de ripeo

General
Complete name                            : O2312GRANHOTEL.avi
Format                                   : AVI
Format/Info                              : Audio Video Interleave
File size                                : 1.14 GiB
Duration                                 : 1h 39mn
Overall bit rate                         : 1 628 Kbps
Writing application                      : VirtualDubMod 1.5.10.2 (build 2540/release)
Writing library                          : VirtualDubMod build 2540/release

Video
ID                                       : 0
Format                                   : MPEG-4 Visual
Format profile                           : Advanced Simple@L5
Format settings, BVOP                    : 2
Format settings, QPel                    : No
Format settings, GMC                     : No warppoints
Format settings, Matrix                  : Default (H.263)
Codec ID                                 : XVID
Codec ID/Hint                            : XviD
Duration                                 : 1h 39mn
Bit rate                                 : 1 235 Kbps
Width                                    : 720 pixels
Height                                   : 384 pixels
Display aspect ratio                     : 1.85:1
Frame rate                               : 23.976 fps
Color space                              : YUV
Chroma subsampling                       : 4:2:0
Bit depth                                : 8 bits
Scan type                                : Progressive
Compression mode                         : Lossy
Bits/(Pixel*Frame)                       : 0.186
Stream size                              : 883 MiB (76%)
Writing library                          : XviD 1.2.1 (UTC 2008-12-04)

Audio
ID                                       : 1
Format                                   : AC-3
Format/Info                              : Audio Coding 3
Mode extension                           : CM (complete main)
Format settings, Endianness              : Big
Codec ID                                 : 2000
Duration                                 : 1h 39mn
Bit rate mode                            : Constant
Bit rate                                 : 384 Kbps
Channel(s)                               : 6 channels
Channel positions                        : Front: L C R, Side: L R, LFE
Sampling rate                            : 48.0 KHz
Bit depth                                : 16 bits
Compression mode                         : Lossy
Stream size                              : 274 MiB (24%)
Alignment                                : Split accross interleaves
Interleave, duration                     : 42 ms (1.00 video frame)
Interleave, preload duration             : 500 ms

Parte 1
Parte 2
Parte 3
Parte 4

Nota: Si encuentras un link cado avsame para volverlo a subir


DESCARGA AQUI

Categoria: Video

Estimado visitante, usted esta en el sitio como usuario no registrado.
Le recomendamosRegistrarse o entrar en el sitio con sus datos.
Información
Usuarios que están en este grupo no pueden dejar comentarios en la página