» » The Pretty One [DVDRip Comedia Castellano 2013 Avi Oboom]

 
 
 

The Pretty One [DVDRip Comedia Castellano 2013 Avi Oboom]

Autor: Orlando_2312 el 13-08-2014, 20:48, Visitas: 301

DESCARGA AQUI

loading...

0


Informacin del archivo en el servidor
N de Links: 4
Servidor: Oboom
Tamao: 965 MB

Sinopsis
Cuando su gemela ms guapa muere, una mujer asume su 
identidad, entrando en su apartamento 
y en la gran ciudad. 

Caps


The Pretty One [DVDRip Comedia Castellano 2013 Avi Oboom]


Ficha Tenica

Ttulo original
The Pretty One
Ao
2013
Duracin
90 min.
Pas
Estados Unidos
Director
Jenée LaMarque
Guin
Jenée LaMarque
Msica
Julian Wass 
Fotografa
Polly Morgan 
Reparto
Zoe Kazan, Jake Johnson, Ron Livingston, 
Danny Pudi, Sterling Beaumon, Frances 
Shaw, Sabrina Lloyd, Audi Resendez, 
Jennifer Lafleur, Anne Gregory
Productora
Provenance Pictures / RCR Pictures
Género
Comedia. Drama | Cine independiente USA 

Datos de ripeo

General
Complete name                            : O2312PRETTY.avi
Format                                   : AVI
Format/Info                              : Audio Video Interleave
File size                                : 965 MiB
Duration                                 : 1h 35mn
Overall bit rate                         : 1 415 Kbps
Writing application                      : VirtualDubMod 1.5.10.2 (build 2540/release)
Writing library                          : VirtualDubMod build 2540/release

Video
ID                                       : 0
Format                                   : MPEG-4 Visual
Format profile                           : Advanced Simple@L5
Format settings, BVOP                    : 2
Format settings, QPel                    : No
Format settings, GMC                     : No warppoints
Format settings, Matrix                  : Default (MPEG)
Codec ID                                 : XVID
Codec ID/Hint                            : XviD
Duration                                 : 1h 35mn
Bit rate                                 : 1 022 Kbps
Width                                    : 640 pixels
Height                                   : 352 pixels
Display aspect ratio                     : 16:9
Frame rate                               : 23.976 fps
Color space                              : YUV
Chroma subsampling                       : 4:2:0
Bit depth                                : 8 bits
Scan type                                : Progressive
Compression mode                         : Lossy
Bits/(Pixel*Frame)                       : 0.189
Stream size                              : 696 MiB (72%)
Writing library                          : XviD 1.2.1 (UTC 2008-12-04)

Audio
ID                                       : 1
Format                                   : AC-3
Format/Info                              : Audio Coding 3
Mode extension                           : CM (complete main)
Format settings, Endianness              : Big
Codec ID                                 : 2000
Duration                                 : 1h 35mn
Bit rate mode                            : Constant
Bit rate                                 : 384 Kbps
Channel(s)                               : 6 channels
Channel positions                        : Front: L C R, Side: L R, LFE
Sampling rate                            : 48.0 KHz
Bit depth                                : 16 bits
Compression mode                         : Lossy
Stream size                              : 262 MiB (27%)
Alignment                                : Split accross interleaves
Interleave, duration                     : 42 ms (1.00 video frame)
Interleave, preload duration             : 500 ms

Parte 1
Parte 2
Parte 3
Parte 4

Nota: Si encuentras un link cado avsame para volverlo a subir


DESCARGA AQUI

Categoria: Video

Estimado visitante, usted esta en el sitio como usuario no registrado.
Le recomendamosRegistrarse o entrar en el sitio con sus datos.
Información
Usuarios que están en este grupo no pueden dejar comentarios en la página