» » Machete Kills [DVDRip Accion Castellano 2013 Avi Oboom]

 
 
 

Machete Kills [DVDRip Accion Castellano 2013 Avi Oboom]

Autor: Orlando_2312 el 13-08-2014, 20:31, Visitas: 296

DESCARGA AQUI

loading...

0


Informacin del archivo en el servidor
N de Links: 4
Servidor: Oboom
Tamao: 1.2 GB

Sinopsis
Tras ser contratado por el presidente de Estados Unidos (Charlie Sheen), Machete 
(Dany Trejo) se embarca en una peligrosa misin: acabar con el lder de un 
cartel y un traficante de armas multimillonario y excéntrico llamado 
Luther Voz (Mel Gibson), quien ha ideado un plan para llevar el 
caos y la destruccin a todo el planeta con 
una potente arma espacial. 

Caps


Machete Kills [DVDRip Accion Castellano 2013 Avi Oboom]


Ficha Tenica

Ttulo original
Machete Kills
Ao
2013
Duracin
107 min.
Pas
Estados Unidos
Director
Robert Rodriguez
Guin
Kyle Ward (Personajes: lvaro Rodrguez)
Msica
Robert Rodriguez, Carl Thiel
Fotografa
Robert Rodriguez
Reparto
Danny Trejo, Mel Gibson, Jessica Alba, 
Amber Heard, Alexa Vega, Michelle
Rodrguez, Sofa Vergara, Vanessa 
Hudgens, Demin Bichir, Charlie 
Sheen, Lady Gaga, Cuba Gooding Jr., 
Edward James Olmos, William Sadler, 
Electra Avellan, Elise Avellan, 
Mike Gassaway, Sophia Hoang, 
Heaven Elizabeth Fearn, Marko 
Zaror, Antonio Banderas, Tom Savini, Walton Goggins
Productora
AR Films / Aldamisa Entertainment / Troublemaker Studios
Género
Accin. Thriller | Venganza. Comedia negra. Secuela 

Datos de ripeo

General
Complete name                            : O2312MACHETE.avi
Format                                   : AVI
Format/Info                              : Audio Video Interleave
File size                                : 1.26 GiB
Duration                                 : 1h 47mn
Overall bit rate                         : 1 683 Kbps
Writing application                      : VirtualDubMod 1.5.10.2 (build 2540/release)
Writing library                          : VirtualDubMod build 2540/release

Video
ID                                       : 0
Format                                   : MPEG-4 Visual
Format profile                           : Advanced Simple@L5
Format settings, BVOP                    : 2
Format settings, QPel                    : No
Format settings, GMC                     : No warppoints
Format settings, Matrix                  : Default (H.263)
Muxing mode                              : Packed bitstream
Codec ID                                 : XVID
Codec ID/Hint                            : XviD
Duration                                 : 1h 47mn
Bit rate                                 : 1 225 Kbps
Width                                    : 720 pixels
Height                                   : 384 pixels
Display aspect ratio                     : 1.85:1
Frame rate                               : 23.976 fps
Color space                              : YUV
Chroma subsampling                       : 4:2:0
Bit depth                                : 8 bits
Scan type                                : Progressive
Compression mode                         : Lossy
Bits/(Pixel*Frame)                       : 0.185
Stream size                              : 943 MiB (73%)
Writing library                          : XviD 64

Audio
ID                                       : 1
Format                                   : AC-3
Format/Info                              : Audio Coding 3
Mode extension                           : CM (complete main)
Format settings, Endianness              : Big
Codec ID                                 : 2000
Duration                                 : 1h 47mn
Bit rate mode                            : Constant
Bit rate                                 : 448 Kbps
Channel(s)                               : 6 channels
Channel positions                        : Front: L C R, Side: L R, LFE
Sampling rate                            : 48.0 KHz
Bit depth                                : 16 bits
Compression mode                         : Lossy
Stream size                              : 344 MiB (27%)
Alignment                                : Split accross interleaves
Interleave, duration                     : 42 ms (1.00 video frame)
Interleave, preload duration             : 500 ms

Parte 1
Parte 2
Parte 3
Parte 4

Nota: Si encuentras un link cado avsame para volverlo a subir


DESCARGA AQUI

Categoria: Video

Estimado visitante, usted esta en el sitio como usuario no registrado.
Le recomendamosRegistrarse o entrar en el sitio con sus datos.
Información
Usuarios que están en este grupo no pueden dejar comentarios en la página