» » Destino Final 1 [DVDRip Terror Castellano 2000 .Avi Lb]

 
 
 

Destino Final 1 [DVDRip Terror Castellano 2000 .Avi Lb]

Autor: skay73 el 5-06-2012, 02:16, Visitas: 473

DESCARGA AQUI

loading...

0

Caps


Destino Final 1 [DVDRip Terror Castellano 2000 .Avi Lb]


Ficha Tenica

T蚑ULO ORIGINAL Final Destination
A袿 2000
DURACI覰 97 min.
PA蚐 EE.UU
DIRECTOR James Wong
GUI覰 Jeffrey Reddick, James Wong, Glen Morgan
M赟ICA Shirley Walker
FOTOGRAF虯 Robert McLachlan
REPARTO Devon Sawa, Ali Larter, Kerr Smith, Seann William Scott, Kristen Cloke, Daniel Roebuck, Roger Guenveur Smith, Chad Donella, Amanda Detmer, Tony Todd
PRODUCTORA New Line Cinema
G蒒ERO Terror | Slasher. Adolescencia. Aviones

Datos de ripeo


D.F.00_CAste_DJR.avi
Format                                   : AVI
Format/Info                              : Audio Video Interleave
File size                                : 698 MiB
Duration                                 : 1h 33mn
Overall bit rate                         : 1 039 Kbps
Writing library                          : VirtualDub build 18160/release

Video
ID                                       : 0
Format                                   : MPEG-4 Visual
Format settings, BVOP                    : 1
Format settings, QPel                    : No
Format settings, GMC                     : No warppoints
Format settings, Matrix                  : Default (H.263)
Muxing mode                              : Packed bitstream
Codec ID                                 : DX50
Codec ID/Hint                            : DivX 5
Duration                                 : 1h 33mn
Bit rate                                 : 901 Kbps
Width                                    : 712 pixels
Height                                   : 380 pixels
Display aspect ratio                     : 1.874
Frame rate                               : 25.000 fps
Color space                              : YUV
Chroma subsampling                       : 4:2:0
Bit depth                                : 8 bits
Scan type                                : Progressive
Compression mode                         : Lossy
Bits/(Pixel*Frame)                       : 0.133
Stream size                              : 605 MiB (87%)
Writing library                          : DivX 5.0.5 (UTC 2003-04-24)

Audio
ID                                       : 1
Format                                   : MPEG Audio
Format version                           : Version 1
Format profile                           : Layer 3
Codec ID                                 : 55
Codec ID/Hint                            : MP3
Duration                                 : 1h 33mn
Bit rate mode                            : Constant
Bit rate                                 : 128 Kbps
Channel(s)                               : 2 channels
Sampling rate                            : 44.1 KHz
Compression mode                         : Lossy
Delay relative to video                  : 26ms
Stream size                              : 86.0 MiB (12%)
Alignment                                : Split accross interleaves
Interleave, duration                     : 40 ms (1.00 video frame)
Interleave, preload duration             : 500 ms


Descarga

Parte 1
http://rapidgator.net/file/10645612/

Nota: Si encuentras un link ca韉o av韘ame para volverlo a subir

DESCARGA AQUI

Categoria: Video

Estimado visitante, usted esta en el sitio como usuario no registrado.
Le recomendamosRegistrarse o entrar en el sitio con sus datos.
Informaci贸n
Usuarios que est谩n en este grupo no pueden dejar comentarios en la p谩gina